Vous n'êtes pas connecté(e)  Connexion ou Inscription gratuite

Multi Episode Manny et ses outils HDTV

Multi Episode Manny et ses outils HDTV

Robot
Messages : 100000
Lieu : Nowhere


Manuel Garcia, surnommé Manny, est un jeune réparateur. Il a installé sa boutique à Rochepierre-les-Feuilles où il exerce son métier avec ses outils. Ces derniers sont dotés d'une vie propre et ils ont chacun leur caractère.

PW: Yo45P10

CODE:
General
Complete name VideosDivX MoviesMANNY ET SES OUTILS (3) Ep 99 Episode 99 - Poule mouillée Concours de photo (losmarijuanos&Yo45P10)MANNY ET SES OUTILS (3) Ep 99 Episode 99 - Poule mouillée Concours de photo (losmarijuanos).mp4
Format : MPEG-4
Format profile : Base Media
Codec ID : isom
File size : 402 MiB
Duration : 23mn 0s
Overall bit rate : 2 445 Kbps
Tagged date : UTC 2012-06-01 07:49:15
Writing application : Lavf52.68.0
rtng : 0

Video
ID : 1
Format : MPEG-4 Visual
Format profile : Simple@L1
Format settings, BVOP : No
Format settings, QPel : No
Format settings, GMC : No warppoints
Format settings, Matrix : Default (H.263)
Codec ID : 20
Duration : 23mn 0s
Bit rate mode : Variable
Bit rate : 2 313 Kbps
Maximum bit rate : 8 088 Kbps
Width : 720 pixels
Height : 404 pixels
Display aspect ratio : 16:9
Frame rate mode : Constant
Frame rate : 25.000 fps
Color space : YUV
Chroma subsampling : 4:2:0
Bit depth : 8 bits
Scan type : Progressive
Compression mode : Lossy
Bits/(Pixel*Frame) : 0.318
Stream size : 381 MiB (95%)
Writing library : Lavc52.76.0

Audio
ID : 2
Format : AAC
Format/Info : Advanced Audio Codec
Format profile : LC
Codec ID : 40
Duration : 23mn 0s
Bit rate mode : Variable
Bit rate : 128 Kbps
Maximum bit rate : 175 Kbps
Channel(s) : 2 channels
Channel positions : Front: L R
Sampling rate : 44.1 KHz
Compression mode : Lossy
Stream size : 21.1 MiB (5%)

Download Url File name
MANNY ET SES OUTILS (3) Ep 97 - La réparation de Brico Atelier poterie (losmarijuanos).mp4
http://uptobox.com/ocu3kn6h02k5
http://dl.free.fr/lGyijs3ay

MANNY ET SES OUTILS (3) Ep 98 - Danger pollution -Un nouveau trottoir (losmarijuanos).mp4
http://uptobox.com/9mbagrb81tah
http://www.filefactory.com/file/59sjd3xitr9x/n/MANNY_20ET_20SES_20OUTILS_20_283_29_20_20Ep_2098_20-_20Danger_20pollution_20_20_20-Un_20nouveau_20trottoir_20_28losmarijuanos_29.mp4
http://www.putlocker.com/file/FF0A4581615C52FF
http://dl.free.fr/jL2fu9i9P

MANNY ET SES OUTILS (3) Ep 99 Episode 99 - Poule mouillée Concours de photo (losmarijuanos&Yo45P10).rar
http://uptobox.com/ltbod4p12ux6
http://www.putlocker.com/file/4E48ABAEFFF07CDC
http://dl.free.fr/iGowKfe2r

Download Url File name
http://depositfiles.com/files/i9cbj16eh MANNY ET SES OUTILS (3) Ep 97 - La réparation de Brico Atelier poterie (losmarijuanos).mp4
http://depositfiles.com/files/1plku1cd7 MANNY ET SES OUTILS (3) Ep 98 - Danger pollution -Un nouveau trottoir (losmarijuanos).mp4
http://depositfiles.com/files/tub0a9vtb MANNY ET SES OUTILS (3) Ep 99 Episode 99 - Poule mouillée Concours de photo (losmarijuanos&Yo45P10).rar

Télécharger Multi Episode Manny et ses outils HDTV